#TITLE:Gabber Speedcore;
#SUBTITLE:;
#ARTIST:Unknown artist;
#TITLETRANSLIT:;
#SUBTITLETRANSLIT:;
#ARTISTTRANSLIT:;
#CREDIT:;
#BANNER:BN.bmp;
#BACKGROUND:BG.bmp;
#LYRICSPATH:;
#CDTITLE:!TITLE.bmp;
#MUSIC:master of rave - 340 bpm gabber speedcore.mp3;
#OFFSET:0.000;
#SAMPLESTART:100.000;
#SAMPLELENGTH:11.980;
#SELECTABLE:YES;
#BPMS:0.000=226.001,32.500=451.997,564.000=226.000;
#STOPS:;
#BGCHANGES:32.500=DIE.bmp=1.000=0=0=1,
47.500=BG.bmp=1.000=0=0=1,
340.500=CANT.bmp=1.000=0=0=1,
351.500=HERE.bmp=1.000=0=0=1,
359.500=BG.bmp=1.000=0=0=1,
586.000=GIVE.bmp=1.000=0=0=1,
593.000=WIN.bmp=1.000=0=0=1,
597.000=BG.bmp=1.000=0=0=1,
782.500=GIVE.bmp=1.000=0=0=1,
785.500=HERE.bmp=1.000=0=0=1,
788.500=BG.bmp=1.000=0=0=1,
892.500=untitled.bmp=1.000=0=0=1,
99999=-nosongbg-=1.000=0=0=0 // don't automatically add -songbackground-
;
// cache tags:
#FIRSTBEAT:7.500;
#LASTBEAT:893.500;
#SONGFILENAME:Songs/nhac/Gabber Speedcore/master of rave - 340 bpm gabber speedcore.sm;
#HASMUSIC:1;
#HASBANNER:1;
#MUSICLENGTH:166.528;
// end cache tags

//---------------dance-single - (20)----------------
#NOTES:
     dance-single:
     (20):
     Challenge:
     15:
     1.000,1.000,1.000,0.955,0.465,1314.000,448.000,159.000,0.000,95.000:
0000
0000
0000
0000
,
0000
0000
0000
0000
0000
0000
0000
0011
,
0000
0000
1010
0000
0000
0000
1000
0010
0100
0001
0010
0100
0001
0100
0010
0001
,
1000
0010
0100
0001
0010
0100
1000
0100
,
0000
0000
0110
0000
0000
0000
0011
0000
0000
0000
1000
0100
0010
0001
0010
0100
,
1000
0000
0011
0000
0000
0000
0110
0000
0000
0200
0000
0000
0000
0000
0000
0000
,
0000
2002
0000
0000
0000
0000
3303
0000
0000
0000
0000
0000
0000
0000
0000
0000
,
0002
0000
0000
0000
0000
2200
0000
3303
,
0000
2002
0000
0000
0000
0000
0000
0000
,
0000
0000
0000
0000
,
0000
0000
0000
0000
,
0000
0000
0000
0000
0000
0000
0000
3003
,
0000
0000
0000
0000
,
0000
1100
0000
1010
0000
0011
0000
0110
,
0000
1100
0000
1010
0000
0110
0000
0011
,
0000
0110
0000
1100
0000
0110
0000
0011
,
0100
0011
0000
0101
0000
0110
0000
1100
,
0000
0110
0000
0011
0000
1010
0000
0110
,
0000
0011
1000
0011
0000
0110
0000
1100
,
0000
0110
0000
0011
0000
1010
0000
1010
,
0000
0101
0000
0110
0000
0101
0000
1100
,
0000
0101
0010
0101
0000
1100
0000
0110
,
0000
0011
0000
1010
0000
0110
0000
0011
,
0000
1010
0000
0110
0000
1100
0001
0110
,
0000
1000
0010
0100
0001
0010
0100
0010
,
0001
1000
0100
0010
0100
0010
0100
1000
,
0010
0100
0001
0010
0100
0001
0010
0100
,
0001
0010
0100
0010
0001
1000
0100
0010
,
1000
0100
0010
1000
0100
0010
1000
0100
,
0010
0100
1000
0010
0100
0001
0100
0010
,
1000
0100
0010
0100
0001
0100
1000
0010
,
0100
0001
0010
0100
0010
0001
1000
0010
,
0100
0001
0010
0001
0100
0010
1000
0100
,
0001
0100
1000
0010
0100
0001
0010
0001
,
0100
0010
1000
0100
0010
0001
0010
0100
,
1000
0110
0000
0000
0001
0011
0000
0000
,
0010
1100
0000
0000
1000
0110
0000
0000
,
0001
0011
0000
0000
0100
0110
0000
0000
,
1000
0011
0000
0000
1000
0110
0000
0000
,
0001
0110
0000
0000
1000
1100
0000
0000
,
0100
0011
0000
0000
0001
1100
0000
0000
,
0001
0010
0001
0100
0010
0100
0001
0010
,
0100
0010
0001
1000
0100
0010
0001
0010
,
0100
1000
0001
0010
0001
0100
0010
0100
,
0001
0010
0100
1000
0100
0010
0001
0100
,
0010
1000
0100
0010
1000
0100
0010
1000
,
0100
0010
1000
0100
0010
0100
1000
0001
,
0010
0100
0001
0010
0100
0001
0010
0100
,
0001
0010
0100
0010
0001
1000
0100
0010
,
0001
0010
0100
1000
0010
0100
0001
0010
,
0100
0010
0001
0100
0010
1000
0100
0010
,
0100
1000
0000
1000
0100
0001
0010
1000
,
0100
0001
0010
1000
0100
0010
0001
1000
,
0100
0001
0010
0001
0100
0010
1000
0100
,
1000
0100
1000
0001
0010
0001
0010
0001
,
1000
0010
0100
0001
0010
0100
1000
0100
,
0010
0011
0000
0110
0000
1010
0000
1001
,
0000
0011
0000
0110
0000
1100
0000
0110
,
0000
0011
0000
1010
0000
0110
0000
0011
,
0000
1010
0000
0110
0000
0011
0000
1010
,
0000
0110
0000
0011
0000
1010
0000
1001
,
0000
0110
0000
0011
0000
1010
0000
0110
,
0000
0011
0000
1010
0000
0110
0000
0011
,
0000
1010
0000
0110
0000
0011
0000
1010
,
0000
0110
0000
0101
0000
0110
0000
1100
,
0000
0011
0000
0011
0000
0011
0000
0011
,
0000
1100
0000
1100
0000
1100
0000
1100
,
0000
0001
0010
0100
0010
0001
0100
0010
,
1000
0100
0010
0100
1000
0001
0010
0100
,
0010
0001
1000
0100
0010
1000
0100
0010
,
1000
0100
0010
0001
0010
0100
0001
0010
,
0100
0001
0010
0100
0001
0010
0100
1000
,
0100
0010
1000
0100
0010
1000
0100
0010
,
0001
0010
0100
1000
0010
0100
0010
0100
,
0010
0100
0001
0010
0001
0010
0001
1000
,
0100
1000
0100
1000
0010
0100
0001
0010
,
0100
1000
0100
0010
0001
0100
0010
1000
,
0100
0010
0002
0000
0000
1000
0100
1000
,
0100
0010
0100
1000
0100
2003
0000
0000
,
0010
0100
0001
0010
0100
0010
0001
3200
,
0000
1000
0010
0001
0010
1000
0010
0001
,
0010
1300
0010
0002
0100
0010
1000
0010
,
0100
0010
1000
0010
0100
2003
0010
0100
,
0001
0010
0100
0010
0001
0100
0010
3002
,
0100
0010
1000
0100
0010
0100
1000
0013
,
0100
2002
0000
0000
0000
0000
0000
0000
,
0000
0000
0000
0000
,
0000
0000
0000
0000
,
0000
0000
0000
0000
,
0000
0000
0000
0000
0000
0000
0000
3003
,
0000
1100
0000
1010
0000
0110
0000
0011
,
0000
1010
0000
0110
0000
0011
0000
2020
,
0000
0101
0000
0101
0000
0101
0000
3131
,
0000
0011
0000
0110
0000
1010
0000
0110
,
0000
0022
0000
1100
0000
1100
0000
1133
,
0000
0110
0000
1010
0000
0011
0000
1100
,
0000
0101
0000
1001
0000
0110
0000
1100
,
0000
2002
0000
0110
0000
0110
0000
3113
,
0000
2002
0000
0000
0000
0000
0000
0000
,
0000
0000
0000
0000
,
0000
0000
0000
0000
0000
0000
0000
3003
,
0000
1000
0010
0100
0001
0010
0100
0010
,
1000
0010
0100
0001
0100
0010
1000
0100
,
0010
0100
0010
0100
0001
0010
0100
0010
,
1000
0010
0100
0010
0001
0100
0010
0100
,
0001
0100
0010
0100
0001
0100
0001
0010
,
0100
0001
0010
0100
0010
1000
0100
0010
,
1000
0100
0010
1000
0100
0010
1000
0010
,
0001
0010
0100
0001
0010
0100
0001
0010
,
0100
1000
0100
0010
0001
0100
0010
1000
,
0100
0010
0100
0001
0100
0010
1000
0010
,
0100
0001
0010
0100
1000
0100
0010
0001
,
0100
0010
1000
0100
0010
1000
0010
0100
,
1000
0010
0100
0001
0010
0100
0010
0001
,
1000
0010
0100
0001
0010
0001
0100
0010
,
1000
0100
0010
0001
0010
0100
1000
0001
,
0010
0001
0100
0010
1000
0100
0010
0001
,
0010
0100
0010
1000
0010
0001
0100
0010
,
1000
0100
0001
1000
0100
0001
1000
0100
,
0001
0010
1000
0100
0010
0001
0010
1000
,
0001
2222
0000
0000
0000
0000
0000
3033
,
0000
2022
0000
0000
0000
0000
0000
3303
,
0000
0000
0000
2202
0000
0000
0000
0030
,
0000
0303
0000
0000
0000
0222
0000
0000
,
0000
0000
0000
0000
,
0000
0000
0000
0000
,
0000
0000
0000
0000
0000
0000
0000
3333
,
0000
1100
0000
0110
0000
0011
0000
1010
,
0000
0110
0000
0011
0000
1010
0000
0110
,
0000
1100
0000
1001
0000
0011
0000
0110
,
0000
1010
0000
2222
0000
0000
0000
0330
,
0000
0000
0000
0000
0000
0220
0000
0033
,
0000
0000
0000
0000
0000
0000
0000
0022
,
0000
0000
0000
3000
0000
0000
0000
0003
,
0000
2002
0000
0000
0000
0000
0000
0000
,
0000
0000
0000
0000
,
0000
0000
0000
0000
,
0000
0000
0000
3333
0000
1000
0010
0100
,
0001
0010
0100
0010
0001
1000
0100
0010
,
0100
1000
0001
0010
0100
0010
0001
0100
,
0010
1000
0100
0010
0100
1000
0010
0100
,
0001
0000
0000
0000
0000
0000
0000
0000
0000
0000
1000
0100
0010
0001
0010
0100
,
1000
0000
0000
0000
0000
0000
0000
0000
0000
0000
0000
0000
0000
0000
1000
0010
,
0100
0001
0010
0100
1000
0100
0010
0001
0010
0100
0010
1000
0010
0001
0100
0010
,
1000
0100
0010
0000
0000
0000
0000
0000
0000
0000
0000
0000
0000
0000
1100
0000
,
0000
0000
0011
0000
0000
0000
1000
0100
0010
0000
0000
0000
0000
0000
0011
0000
,
0000
1100
0000
0022
0000
0000
0000
2200
,
0000
0000
0000
3333
0000
2002
0000
0000
,
0000
0000
0000
0000
0000
0000
0000
3003
,
0000
0000
1000
0100
0010
0100
1000
0010
0100
0001
0010
0001
0010
0001
0100
0010
,
1000
0010
0100
0001
0010
0100
0010
0001
1000
0100
0010
0100
1000
0010
0100
0001
,
0010
0100
0010
0001
0100
0010
1000
0100
0010
1000
0010
0100
1000
0001
0010
0100
,
0010
0001
1000
0100
0010
0100
1000
0010
0100
0001
0010
0001
0100
0010
1000
0000
,
1001
0110
1010
0110
0011
0110
1010
1100
,
0110
1010
1001
0011
0000
0000
0000
0000
,
0000
0000
0000
0000
0000
0110
0011
1010
,
0110
0011
1100
0110
0011
1010
0110
0011
,
1100
0110
0011
1100
0110
0011
0110
1100
,
0110
0011
1100
1001
0110
0011
0110
1100
,
1001
0011
0110
1100
1001
0011
0110
1010
,
0011
0110
1010
0011
1001
0101
0110
1100
,
0000
2222
0000
0000
0000
0000
0000
3333
,
0000
0000
1000
0010
0100
0001
0010
0100
0010
0001
0100
0010
0001
0100
0010
0001
,
1000
0100
0010
1000
0100
0010
1000
0100
0010
0100
1000
0010
0100
0001
0010
0100
,
1000
0010
0100
1000
0001
0010
0100
0000
0001
0010
0100
0010
0001
1000
0100
0010
,
0100
1000
0010
0100
0001
0100
1000
0100
0001
0010
0100
0010
1000
0100
0010
0000
,
0000
1100
0110
1010
0110
0011
0110
0011
,
0110
1100
0110
0011
1010
0110
0000
0000
,
0000
0000
0000
0000
0000
0000
0000
0011
,
1010
1100
0110
0011
1010
0110
0011
1010
,
0110
1100
0110
0011
1010
0110
1100
1001
,
0011
0110
1100
0110
0011
1010
0110
0011
,
1010
1100
0110
0011
1010
1100
0110
0011
,
0011
0110
1010
0011
0110
1100
0011
1010
,
0000
0000
1000
0100
0010
0100
1000
0001
0010
0100
0010
0001
0100
0010
1000
0100
,
0010
1000
0100
0010
0001
0010
0100
0001
0010
0100
0001
0010
0100
0010
0001
1000
,
0100
0010
0100
0001
0100
1000
0010
0100
0001
0010
0100
1000
0100
0010
0001
0100
,
0010
1000
0100
0010
0100
1000
0010
0100
0001
0010
0100
1000
0100
0010
0001
0000
,
0000
2222
0000
0000
0000
0000
0000
3330
,
0000
0000
0000
0000
0000
2220
0000
3300
,
0000
2200
0000
0000
0000
3303
0000
2202
,
0000
0000
0000
0303
0000
0202
0000
0333
,
0000
0222
0000
0033
0000
0022
0000
3333
,
0022
0000
2233
0000
3322
2233
3322
2233
,
3322
2233
3322
2233
3322
2233
3322
2233
,
3300
0110
0011
1010
0110
0011
1010
0101
,
0011
1100
1010
1100
0110
0011
1010
0110
,
0011
1010
1100
0110
0011
1100
0110
0011
,
1010
0110
0011
1010
0110
0011
0110
1010
,
0011
1010
1100
0110
0011
1010
1100
0011
,
0110
0011
1100
0110
0011
1010
0110
0011
,
1010
0000
1000
0100
1000
0100
1000
0001
0010
0001
0010
0001
1000
0100
0010
1000
,
0100
0010
1000
0100
0010
1000
0100
0010
0001
0010
0100
0001
0010
0100
0001
0010
,
0100
0001
0010
0100
0001
1000
0001
0100
0010
1000
0100
1000
0100
1000
0001
0010
,
0001
0010
0001
1000
0100
0010
0100
1000
0001
0010
0100
0010
1000
0010
0001
0000
,
0000
1100
0011
1100
0011
0022
0000
0000
,
0000
0000
0000
0000
0000
0000
0000
0033
,
0000
1111
0000
1111
0000
1111
0000
1111
,
0000
1111
0110
1111
0000
1111
0000
1111
,
0000
1111
0000
1111
0110
1111
0000
1111
,
0000
1111
0110
1111
0110
1111
0110
1111
,
0110
1111
1100
0110
0011
1100
0110
0011
,
0110
1000
0100
1000
0000
0000
0110
0000
0000
0011
0000
0000
1100
0000
0000
0110
0000
0000
0011
0000
0000
1010
0000
0000
,
0000
0000
0000
0001
0010
0001
0010
0001
0000
1100
0000
0000
0110
0000
0000
0011
0000
0000
0110
0000
0000
1100
0000
0000
,
0110
0000
0000
1010
0000
0000
0110
0000
0000
0011
0000
0000
0110
0000
0000
1000
0010
1000
0010
1000
0000
0110
0000
0000
,
0011
0000
0000
1010
0000
0000
0110
0000
0000
0011
0000
0000
1100
0000
0000
0011
0000
0000
0110
0000
0000
0001
0100
0010
,
1000
0100
0010
2002
0000
0000
0000
0000
0000
0000
0000
0000
0000
0000
0000
0000
0000
0000
0000
0000
0000
0223
0000
0000
,
0000
3030
0000
2022
0000
0000
0000
3300
,
0000
2200
0000
0033
0000
0022
0000
0000
,
0000
0033
0000
0022
0000
0000
0000
3303
,
2202
0000
0000
0000
0000
3300
2200
0000
,
0000
3300
0000
2200
0000
0000
0000
0030
,
0000
0020
0000
0000
0330
0220
0000
0333
,
0000
0000
0000
0022
0000
0000
0000
3033
,
0000
0220
1001
1001
1001
1331
1001
1221
,
1001
1001
1331
1221
1001
1331
1001
1001
,
1001
2211
0011
0011
0011
3311
0011
2222
,
0000
0000
0000
0000
0000
0000
3330
0000
2220
0000
0000
0000
0000
0330
0000
0000
,
3000
0220
0000
0000
0000
0000
2000
0000
,
0000
3000
0000
2000
0000
0000
0000
0300
,
3000
2200
0000
0000
0000
0003
0002
3000
,
0000
0000
0003
2002
0000
0000
0000
3333
,
0000
2222
0000
0000
0000
0000
0000
0000
,
0000
0000
0000
3333
0000
0000
0000
0000
;

//---------------dance-single - ----------------
#NOTES:
     dance-single:
     :
     Hard:
     13:
     1.000,1.000,1.000,0.697,0.063,956.000,525.000,116.000,0.000,2.000:
0000
0000
0000
0000
,
0000
0000
0000
0000
0000
0000
0000
0011
,
0000
0110
0000
0100
0001
0100
0001
0100
,
0010
1000
0001
0010
0100
1000
0100
0010
,
0000
0011
0000
1100
0000
1000
0100
0010
,
0001
0000
0110
0000
0000
0000
1010
0000
0000
0022
0000
0000
0033
0000
0000
0000
,
0000
2200
0000
0000
3300
0000
0000
0000
0000
0000
0000
0000
0000
0000
0000
0000
,
0022
0000
0033
0000
0000
2200
0000
3300
,
0000
2002
0000
0000
0000
0000
0000
0000
,
0000
0000
0000
0000
,
0000
0000
0000
0000
,
0000
0000
0000
0000
0000
0000
0000
3003
,
0000
0000
0000
0000
,
0000
1000
0000
0100
0000
0010
0000
1000
,
0000
0010
0000
0100
0000
1000
0000
0110
,
0000
1010
0000
0010
0000
0100
0000
1000
,
0010
0100
0000
0011
0000
0110
0000
1100
,
0000
0001
0000
0100
0000
0010
0000
1000
,
0000
0001
0010
0100
0000
1100
0000
1001
,
0000
0011
0000
0010
0000
0100
0000
0001
,
0000
0010
0000
0100
0000
1000
0000
0100
,
0000
0010
0001
0100
0000
0110
0000
1010
,
0000
0101
0000
0010
0000
1000
0000
0010
,
0000
0100
0000
0010
0000
1000
0100
0010
,
0000
1100
0000
0110
0000
0101
0000
0001
,
0000
0010
0000
0100
0000
1010
0000
0110
,
0000
0011
0000
1000
0000
0010
0001
0100
,
0000
0101
0000
0110
0000
1100
0000
0010
,
0000
0100
0000
0001
0000
0010
0000
0100
,
0000
1000
0100
0010
0000
0110
0000
0011
,
0000
1010
0000
0100
0000
0001
0000
0010
,
0000
0100
0000
0010
0000
0001
1000
0100
,
0000
0110
0000
1010
0000
0101
0000
0100
,
0000
0001
0000
0010
0000
0100
0000
0010
,
0000
0001
0000
0100
0000
0010
0000
1000
,
0000
0100
0000
0010
0000
0001
0000
0100
,
0000
0101
0000
0110
0000
0101
0000
0110
,
0000
1100
0000
0110
0000
1100
0000
0110
,
0000
0011
0000
0110
0000
0011
0000
0110
,
0000
1000
0000
0010
0000
0100
0000
0001
,
0000
0010
0000
0001
0000
0100
0000
0010
,
0000
1000
0000
0010
0000
0100
0000
0001
,
0000
0010
0000
0110
0000
1010
0000
0101
,
0000
0010
0000
0100
0000
0001
0000
0010
,
0000
1000
0000
0010
0000
0001
0000
0110
,
0000
1010
0000
0011
0000
0100
0000
0010
,
0000
0100
0000
0010
0000
1000
0000
0100
,
0000
0011
0000
0110
0000
0011
0000
1010
,
0000
0010
0000
0100
0000
0001
0000
0010
,
0000
0100
0000
0010
0000
0101
0000
0011
,
0000
0110
0000
0100
0000
0001
0000
0100
,
0000
0011
0000
0011
0000
0011
0000
0110
,
0000
1100
0000
1100
0000
1100
0000
1100
,
0000
1000
0000
0010
0000
0100
0000
0001
,
0000
0010
0000
0100
0000
0010
0000
0001
,
0000
0101
0000
0110
0000
0110
0000
0101
,
0000
1000
0100
1000
0100
1000
0100
1000
,
0100
0010
0100
0010
0100
0010
0001
0010
,
0001
0010
0000
0110
0000
1010
0000
0011
,
0000
0010
0000
1000
0000
0010
0000
0100
,
0000
0001
0010
0001
0010
0001
0010
0100
,
0010
0100
0010
0100
1000
0100
1000
0100
,
0000
1100
0000
0110
0000
0101
0000
0110
,
0000
1000
0000
0010
0000
0100
0000
0001
,
0000
1000
0100
1000
0100
1000
0100
0010
,
0100
0010
0100
0010
0001
0010
0001
0010
,
0000
0110
0000
1010
0000
0110
0000
0011
,
0000
0010
0000
0100
0000
0001
0000
0100
,
0000
0001
0010
0001
0010
0001
0010
0100
,
0010
0100
0010
0100
1000
0100
1000
0100
,
0000
1100
0000
0110
0000
0011
0000
1010
,
0000
0010
0000
0100
0000
0001
0000
0100
,
0000
1000
0100
1000
0100
1000
0100
0010
,
0100
0010
0100
0010
0001
0010
0001
0010
,
0000
0110
0000
1100
0000
0110
0000
0011
,
0000
0100
0000
0010
0000
1000
0000
0010
,
0000
0100
0000
0001
0000
0010
0000
0100
,
0000
2200
0000
0000
0000
0000
0000
0000
,
0000
0000
0000
0000
0000
3322
0000
0000
,
0000
0000
0000
0000
0000
0000
0000
2233
,
0000
0000
0000
0000
,
0000
3300
0000
0022
0000
0000
0000
0000
,
0000
0000
0000
0000
0000
0033
0000
0100
,
0010
0100
0010
0100
0001
1000
0001
1000
,
0010
0100
0001
0010
0100
1000
0100
0010
,
0001
2002
0000
0000
0000
0000
0000
0000
,
0000
0000
0000
0000
,
0000
0000
0000
0000
,
0000
0000
0000
0000
,
0000
0000
0000
0000
0000
0000
0000
3003
,
0000
1000
0000
0100
0000
0010
0000
0001
,
0000
0101
0000
0101
0000
0101
0000
0110
,
0000
1000
0001
0010
0100
1000
0100
0010
,
0000
0001
0000
0100
0000
0010
0000
1000
,
0000
0110
0000
0101
0000
0110
0000
1100
,
0000
0001
0100
0010
1000
0100
0010
0001
,
0000
0100
0000
0010
0000
1000
0000
0001
,
0000
0011
0000
0110
0000
1010
0000
0011
,
0000
2002
0000
0000
0000
0000
0000
0000
,
0000
0000
0000
0000
,
0000
0000
0000
0000
0000
0000
0000
3003
,
0000
0010
0000
0100
0000
0001
0000
0010
,
0000
0100
0000
0010
0000
0001
0000
1000
,
0000
0010
0000
0100
0000
0001
0000
0010
,
0000
0001
0000
0100
0000
0010
0000
1000
,
0000
0100
0000
1000
0000
0001
0000
0010
,
0000
0100
0000
0101
0000
0110
0000
1100
,
0000
0001
0000
0010
0000
0100
0000
0010
,
0000
0001
0000
0100
0000
0010
0000
0100
,
0000
0010
0000
1000
0000
0011
0000
0110
,
0000
1010
0000
1100
0000
1010
0000
1100
,
0000
0001
0010
0001
0010
0001
0010
0001
,
0000
1000
0100
1000
0100
1000
0100
1000
,
0000
0010
0100
0010
0100
0010
0100
0010
,
0000
1000
0001
1000
0001
1000
0001
1000
,
0000
0001
0000
0010
0000
0100
0000
0010
,
0000
0101
0000
0110
0000
1100
0000
1001
,
0000
0011
0000
0110
0000
1010
0000
0011
,
0000
1010
0000
0011
0000
0110
0000
1010
,
0000
1000
0001
1000
0001
1000
0001
1000
,
0000
2200
0000
0000
0000
0000
0000
3300
,
0000
0022
0000
0000
0000
0000
0000
0033
,
0000
0000
0000
2020
0000
0000
0000
0000
,
0000
3030
0000
0000
0000
0022
0000
0000
,
0000
0000
0000
0000
,
0000
0000
0000
0000
,
0000
0000
0000
0000
0000
0000
0000
0033
,
0000
0100
0000
0010
0000
1000
0000
0001
,
0000
0100
0000
0010
0000
1000
0000
0010
,
0000
0100
0000
0101
0000
1100
0000
1001
,
0000
0011
0000
0202
0000
0000
0000
0000
,
0000
0303
0000
0000
0000
2020
0000
3030
,
0000
0000
0000
0000
0000
0000
0000
0220
,
0000
0000
0000
0330
0000
0000
0000
0000
,
0000
0220
0000
0000
0000
0000
0000
0000
,
0000
0000
0000
0000
,
0000
0000
0000
0000
,
0000
0330
0000
1100
0000
0110
0000
1010
,
0000
0001
0000
0100
0000
0010
0000
1000
,
0000
0110
0000
1010
0000
0011
0000
1010
,
0000
0010
0000
0100
0000
0001
0000
0010
,
0000
0000
0000
0000
0000
0000
0000
0000
0000
0000
1000
0100
0010
0001
0010
0100
,
1000
0000
0000
0000
0000
1100
0000
0110
,
0000
0001
0010
0100
1000
0100
0010
0001
,
0100
0010
0000
0000
0000
0000
0000
1100
,
0000
0000
1001
0000
0000
0000
0001
0010
0100
0000
0000
0000
0000
0000
0011
0000
,
0000
1100
0000
0022
0000
0033
0000
2200
,
0000
3300
0000
0000
0000
2002
0000
0000
,
0000
0000
0000
0000
0000
0000
0000
3003
,
0000
1100
1001
0110
1001
0101
0101
1001
,
0110
0101
1100
0110
0101
1010
0110
1010
,
0011
0101
1001
0110
0011
1100
1001
0011
,
0101
1010
1100
1001
1100
0110
0011
0011
,
0011
1010
1001
1100
1001
1010
1100
1100
,
1010
1010
0101
0011
0000
0000
0000
0000
,
0000
0000
0000
0000
0000
0101
0101
0011
,
0110
0011
0101
1010
0110
0110
0101
1001
,
0011
1001
1010
1010
0011
1100
0011
0110
,
0011
0011
1010
0101
1100
0011
1001
1001
,
1001
1010
0101
1010
0101
1001
0110
0011
,
0110
0101
1010
0110
0110
0011
0101
0011
,
0010
2020
0000
0000
0000
0000
0000
3030
,
0000
1100
0110
1010
0110
0011
1010
0110
,
1010
0011
0110
1010
0110
0011
1010
0110
,
0011
0101
0110
1100
1100
1100
0110
0101
,
0110
0110
0101
0011
0110
1100
0110
0011
,
1010
0110
0011
1010
0110
0011
1010
1100
,
1010
0101
0011
0110
1010
0011
0000
0000
,
0000
0000
0000
0000
0000
0000
0000
1100
,
0011
1001
1001
1001
1010
1100
1001
1100
,
1010
1010
0101
1001
0110
0011
1100
1010
,
0101
1100
1100
1001
0110
1100
0101
0011
,
1100
0011
1001
0011
0101
1001
0011
0011
,
0101
1001
1100
0011
1100
1100
0110
1100
,
0100
0011
0101
1001
0101
1001
1100
0011
,
0011
0110
0110
0110
0110
1100
1010
1001
,
0101
1001
0101
1100
1001
0101
1001
1100
,
0101
0000
0011
0000
0000
0000
0001
0010
0100
0010
0001
1000
0100
0010
0001
0000
,
0000
2002
0000
0000
0000
0000
0000
3003
,
0000
0000
0000
0000
0000
2200
0000
3300
,
0000
0000
0022
0000
0000
0033
0000
0000
0000
0000
0000
0000
0000
0000
2200
0000
,
0000
3300
0000
0000
0000
0022
0033
0000
,
0000
0000
2200
0000
0000
0000
3300
0000
0000
0000
0022
0000
0000
0033
0000
0000
,
2200
3300
0022
0033
1000
0001
1000
0001
,
1000
0001
1000
0001
0010
0100
1100
0101
,
1010
0101
0011
0110
0011
1100
0110
1001
,
0011
0110
1010
0011
0110
1010
0011
1100
,
1010
0011
0110
1100
1001
0011
0110
1100
,
0101
0011
1010
0011
0011
1001
1100
1001
,
0000
0110
1100
0110
0011
1100
0110
1010
,
0011
0110
1100
1010
1100
1100
1001
0101
,
0101
1001
0011
0101
0011
1100
1010
0011
,
1001
1001
1010
0110
0101
1001
1001
1001
,
0110
1001
0110
1001
1001
1001
1001
0010
,
0010
0000
0001
0010
0100
0001
0010
0100
1000
0100
0010
0001
0100
0010
1000
0100
,
0010
0001
0010
0100
1000
0001
0100
0010
0001
0000
0022
0000
0000
0000
0000
0000
,
0000
0000
0000
0000
0000
0000
0000
0033
,
0000
1010
0000
1010
0000
1010
0000
1010
,
0000
0110
0011
1100
0000
0110
0000
0011
,
0000
1010
0000
0110
0011
1001
0000
0110
,
0000
1001
0011
1010
0110
1001
1100
0011
,
0011
0110
1001
1100
0101
0101
1100
0110
,
1010
0011
1100
1100
1001
1010
0110
0011
,
0011
1010
1010
0011
0110
0011
0101
1010
,
0101
0110
1010
0011
1100
1001
0101
1000
,
0000
1100
0110
1100
0110
0011
0110
0011
,
1010
0220
0000
0000
0000
0330
0000
2002
,
0000
3003
0000
0022
0000
0033
0000
0000
,
0000
0220
0000
0330
0000
0022
0000
0033
,
0000
0000
0000
0220
0000
0000
0330
0000
,
2020
0000
3030
2002
,
0000
3003
0000
2200
0000
0000
0000
3300
,
0000
0220
0000
0330
0000
0022
0000
0000
,
0033
0000
0000
2200
0000
0000
3300
0000
,
0000
0220
0000
0000
0000
0330
0000
0022
,
0000
0033
0000
0220
0000
0000
0000
0330
,
0000
0202
0000
0000
0000
0303
0000
2200
,
0000
0000
3300
0000
0220
0000
0000
0330
,
0000
2002
0000
0000
3003
0000
0220
0000
,
0000
0330
0000
0202
0000
0000
0000
0303
,
0000
0022
0000
0000
0033
0000
0220
0000
,
0000
0330
0000
0022
0000
0000
0000
0033
,
0000
2200
0000
0000
0000
0000
0000
0000
,
0000
0000
0000
3300
0000
0000
0000
0000
;
